Ычан: [d | au / b / bro / hr / l / m / mi / mu / o / r / s / sci / tran / tu / tv / vg / x | a / aa / c / fi / jp / rm / tan / to / vn / vo]
[Назад]
Ответ в нить
Имя
Animapcha image [@] [?]
Тема   ( ответ в 25890)
Сообщение flower
Файл 
Пароль  (для удаления файлов и сообщений)
Параметры   
  • Прежде чем постить, ознакомьтесь с правилами.
  • Поддерживаются файлы типов 7Z, BZ, BZ2, GIF, GZ, JPG, MO, MP3, MP4, OGG, OGV, PDF, PNG, PSD, RAR, SVG, SWF, TXT, WEBM, WEBP, XCF, ZIP размером до 5000 кБ.
  • Ныне 3676 unique user posts. Посмотреть каталог
  • Предельное количество бампов нити: 500
Medieval-CUE-Splitter-icon.png - (71.68KB, 256×256)
25890
No. 25890  
Дано: рип виниловой пластинки в двух .flac файлах (side A и side B соответственно), .cue(1шт.), .m3u(1шт.)
Указанная программа при попытке порезать два файла на треки создаёт .flac файл с названием первого трека первого файла(side A)размером 33КБ + .cue и . m3u к нему.
Видел в сети ещё одного бедолагу с такой же проблемой, ему советовали ставить какие-то кодеки и вообще воспользоваться другой программой.
Решения проблемы не нашёл, а потому прошу помощи у вас.

Исходный аудиофайл: https://rutracker.org/forum/viewtopic.php?t=5768831
No. 25891  
cuesp.png - (56.61KB, 648×534)
25891
Странную продолжительность имеют пятый и десятый трек(пикрил).
No. 25893  
REM GENRE New Wave, Post-Punk
REM DATE 2019 (1979)
REM COUNTRY EU
REM LABEL Factory
REM CATALOG FACT 10 40
REM ASDFVL_VinylRip
PERFORMER "Joy Division"
TITLE "Unknown Pleasures"
FILE "Joy Division - Unknown Pleasures - Side A.flac" WAVE
TRACK 01 AUDIO
TITLE "Disorder"
INDEX 01 00:00:00
TRACK 02 AUDIO
TITLE "Day Of The Lords"
INDEX 01 03:31:35
TRACK 03 AUDIO
TITLE "Candidate"
INDEX 01 08:20:00
TRACK 04 AUDIO
TITLE "Insight"
INDEX 01 11:27:00
TRACK 05 AUDIO
TITLE "New Dawn Fades"
INDEX 01 15:52:00
FILE "Joy Division - Unknown Pleasures - Side B.flac" WAVE
TRACK 06 AUDIO
TITLE "She's Lost Control"
INDEX 01 00:00:00
TRACK 07 AUDIO
TITLE "Shadowplay"
INDEX 01 03:56:00
TRACK 08 AUDIO
TITLE "Wilderness"
INDEX 01 07:51:00
TRACK 09 AUDIO
TITLE "Interzone"
INDEX 01 10:32:00
TRACK 10 AUDIO
TITLE "I Remember Nothing"
INDEX 01 12:48:00
No. 25895  
Воспользовался программой XRECODE 3, вес треков на выходе составил ~2.8Гб против ~1.5Гб исходных.
Предстоит разобраться...
No. 25896  
Потыкал галочки. Получил файлы весом в 6.88Гб.
No. 25945  
Вообще используют shnsplit/cuetools в зависимости от системы. А что касается cue, то этот вообще можно разбить на два файла и получить типичное один flac - один cue, это просто текстовый файл бля, кури мануалы:
https://wiki.hydrogenaudio.org/index.php?title=Cue_sheet
https://en.wikipedia.org/wiki/Cue_sheet_(computing)
https://en.wikipedia.org/wiki/Compact_Disc_Digital_Audio#Frames_and_timecode_frames

И не знаю чего ты тут пишешь, я тут особенной активности не замечал. Если знаешь буржуйский, я бы порекомендовал зарегатся на OPS.
https://interview.orpheus.network

>>25893
если у файлов продолжительность действительно ~20 минут, то вина наверняка в тупой программе
No. 25946  
x2.png - (39.00KB, 573×620)
25946
>>25895
Воспользовался программой XRECODE2, всё получилось.
Могу предположить что виной огромного веса треков была это галочка.
Удалить сообщение []
Пароль  
[Mod]